RSS |
网站首页 > 美丝第一站(丝袜视频) > YouMei尤美&YALAYI雅拉伊 > 正文

NO.013 喵星小球迷 喵星人.mp4

25883734 2023-01-16 YouMei尤美&YALAYI雅拉伊 0 ℃ 0 评论

[视频名称] : NO.013 喵星小球迷 喵星人.mp4
[出境模特] : 张静燕
[视频尺寸] : 1920x1080
[视频大小] : 1mp4/54.4M
[视频时长] : 00:01:26
[视频编码] :
Stream #0:0(und): Video: h264 (Main) (avc1 / 0x31637661), yuv420p(tv, bt709/unknown/bt709), 1920x1080 [SAR 1:1 DAR 16:9], 5133 kb/s, 50 fps, 50 tbr, 12800 tbn, 100 tbc (default)
Stream #0:1(und): Audio: aac (LC) (mp4a / 0x6134706D), 44100 Hz, stereo, fltp, 131 kb/s (default)
[下载方式] : 百度网盘23274_1.jpg

付费资源

售价3街拍币,会员用户可享免费查看立即购买升级会员

推荐您阅读更多有关于的文章

【重要】☆☆☆☆☆防走失:

永久地址 :jiepaifeng.net

当前可用地址:jiepaifeng.com

私密地址:meituilaile.com 暗号999

【新】防走失Q群873259175 答案街拍疯


网站分类