RSS |
网站首页 >美丝第一站(丝袜视频) >YouMei尤美&YALAYI雅拉伊 > 正文

NO.011 惊喜の袋鼠军团 黄楽然.mp4

25883734 2023-01-16YouMei尤美&YALAYI雅拉伊 0 ℃0 评论

[视频名称] : NO.011 惊喜の袋鼠军团 黄楽然.mp4
[出境模特] : 黄楽然
[视频尺寸] : 1920x1080
[视频大小] : 1mp4/57.3M
[视频时长] : 00:01:32
[视频编码] :
Stream #0:0(und): Video: h264 (Main) (avc1 / 0x31637661), yuv420p(tv, bt709/unknown/bt709), 1920x1080 [SAR 1:1 DAR 16:9], 5090 kb/s, 50 fps, 50 tbr, 12800 tbn, 100 tbc (default)
Stream #0:1(und): Audio: aac (LC) (mp4a / 0x6134706D), 44100 Hz, stereo, fltp, 129 kb/s (default)
[下载方式] : 百度网盘23272_1.jpg

付费资源

您需要注册登录后通过购买才能查看!

推荐您阅读更多有关于的文章

本站永久地址发布页:jiepaifeng.net 请保存好!
网站分类